Skip to main content

Otis Grove Live at The Church of Boston on 2013-03-19




Otis Grove
2013-03-19
The Church Of Boston
Boston, MA

DPA 4011 > V3 Digital > + SBD (mono) > DR-680 (24/96)
SDHC Card > Sound Forge Pro 10.0 (SBD mono converted to stereo track, Mix, Normalize, fades, resample iZotope 64-Bit SRC, dither iZotope MBIT+ Dither) > CDWav (tracking) > TLH > Flac (level 8)
DIN/DFC/approx. 7' high, 20' from stage
Tags added in Foobar2000

Taped and Transferred by Brian V.

One Set

01. Intro
02.
03.
04.
05.
06.
07.
08.
09.
10.
11.
12. In Memory of Elizabeth Reed%
13.
14. outro


Collection OtisGrove
Band/Artist Otis Grove
Date March 19, 2013
Venue The Church of Boston
Location Boston, MA

Source DPA 4011 > V3 Digital > + SBD (mono) > DR-680 (24/96)
Lineage SDHC Card > Sound Forge Pro 10.0 (SBD mono converted to stereo track, Mix, Normalize, fades, resample iZotope 64-Bit SRC, dither iZotope MBIT+ Dither) > CDWav (tracking) > TLH > Flac (level 8)
Taped by Brian V.
Transferred by Brian V.


Notes

% with Van Gordon Martin on guitar

A tribute to Melvin Sparks

Sam Gilman - Hammond Organ
Tyler Drabick - Guitar
Bill Carbone - drums
Jamemurrell Stanley - percussion

Thanks to the staff at the Church of Boston and for the SBD feed and to Benny Tucker for putting on the Secret Sessions series on Tuesdays.
***Support Bands That Allow Taping/Trading***

flac fingerprints
otisgrove2013-03-19s1t01.flac:fddb1fe37420c13d93b428fa7a902f97
otisgrove2013-03-19s1t02.flac:edab26fbe1e63d9f535a6414913ddcac
otisgrove2013-03-19s1t03.flac:975148fa9d1cbdc1e8c89b225be61867
otisgrove2013-03-19s1t04.flac:bfc1478edc5eb62ffebda0ee299c8f74
otisgrove2013-03-19s1t05.flac:52b7e8074ee322bd7f1e35b7f8ba4106
otisgrove2013-03-19s1t06.flac:8352479061db0233088169e9cd485f69
otisgrove2013-03-19s1t07.flac:9a016ae9728e7f53f069fc5a8d767da6
otisgrove2013-03-19s1t08.flac:f0f7db09f90b6b59bba2d467532f4a63
otisgrove2013-03-19s1t09.flac:43f62cd0e57b71c5a5524b68e8423fd7
otisgrove2013-03-19s1t10.flac:241ac7b3f75183852766d989c9b13d66
otisgrove2013-03-19s1t11.flac:0a8ac7246a32f732d8247f48a4b68016
otisgrove2013-03-19s1t12.flac:869991b00ded3f091e3f443e2580a0fa
otisgrove2013-03-19s1t13.flac:5e879fcbd612dc145d067fe581aa49c2
otisgrove2013-03-19s1t14.flac:13eed47270e8c96192cd01f2377604ba

shntool
length expanded size cdr WAVE problems fmt ratio filename
2:31.71 26803436 B --- -- ---xx flac 0.3981 otisgrove2013-03-19s1t01.flac
6:08.33 64992860 B --- -- ---xx flac 0.5458 otisgrove2013-03-19s1t02.flac
8:00.29 84740252 B --- -- ---xx flac 0.5600 otisgrove2013-03-19s1t03.flac
4:13.55 44758604 B --- -- ---xx flac 0.5544 otisgrove2013-03-19s1t04.flac
6:21.67 67366028 B --- -- ---xx flac 0.5414 otisgrove2013-03-19s1t05.flac
7:46.26 82263596 B --- -- ---xx flac 0.5533 otisgrove2013-03-19s1t06.flac
6:24.57 67871708 B --- -- ---xx flac 0.5792 otisgrove2013-03-19s1t07.flac
7:30.45 79485884 B --- -- ---xx flac 0.5691 otisgrove2013-03-19s1t08.flac
6:06.66 64717676 B --- -- ---xx flac 0.5639 otisgrove2013-03-19s1t09.flac
5:58.48 63264140 B --- -- ---xx flac 0.5977 otisgrove2013-03-19s1t10.flac
12:33.61 132972716 B --- -- ---xx flac 0.5721 otisgrove2013-03-19s1t11.flac
17:41.03 187167500 B --- -- ---xx flac 0.5567 otisgrove2013-03-19s1t12.flac
5:06.00 53978444 B --- -- ---xx flac 0.5847 otisgrove2013-03-19s1t13.flac
1:40.68 17799980 B --- -- ---xx flac 0.4596 otisgrove2013-03-19s1t14.flac
98:05.29 1038182824 B 0.5580 (14 files)

Reviews

Reviewer: Wichita Clem - - April 10, 2013
Subject: Couple of corrections
I'm going to try to come up with more of the set list, but for now:
World Is a Ghetto is by War
Everything I Do Got to be Funky is an Alan Toussaint tune done by Lee Dorsey among others.
In the mean time, I'm totally unfamiliar with the band, but the sound is fine, and I love organ combos, so give this a shot if that sounds good. Thanks for the share!
Reviewer: vinchooch - - April 10, 2013
Subject: Great Show
Here are some of the Tracks;

10 - Revenge of Dr. Fantastic (OG Orig)
11- The World Is a Ghetto (George Benson?)
13 - Everything I Play Gon B Funky (Melvin Sparks?)
Reviewer: heynow1 - - March 21, 2013
Subject: excellent
Brian-sounds great!!
Download Options
552.4M
FLAC
64.5M
OGG VORBIS
3.3K
TEXT
41.6K
TORRENT
133.4M
VBR M3U
133.4M
VBR MP3
-
VBR ZIP
In Collection
Otis Grove
In Collection
Live Music Archive
Uploaded by
Brian V.
on 3/21/2013
Views
276
Favorites
1
Reviews
3
PEOPLE ALSO FOUND
Otis Grove
by Otis Grove
92
0
0
Source: AKG c214 + SBD (mono) > R44 (24/48)
Otis Grove
by Otis Grove
45
0
0
Source: DPA 4011 > V3 Digital + SBD > Tascam DR680 (24/96)
Otis Grove
by Otis Grove
88
0
0
Source: DPA 4011 > V3 Digital + SBD > Tascam DR680 (24/96)
Otis Grove
by Otis Grove
35
0
0
Source: DPA 4011 > V3 Digital + SBD (mono) > R44 (24/96)
Otis Grove
by Otis Grove
84
0
0
Source: BSC1 (hypers) > Silver Cables > FR-2LE [BA TMod] (24/48)
Otis Grove
by Otis Grove
90
0
0
Source: DPA 4011 > V3 Digital > R44 (24/48)
Otis Grove
by Otis Grove
26
0
0
Source: DPA 4011 > V3 Digital > + SBD (mono) > DR-680 (24/96)
Otis Grove
by Otis Grove
24
0
0
Source: DPA 4011 > V3 Digital + SBD > R44 (24/96)
Otis Grove
by Otis Grove
41
0
0
Source: DPA 4011 > V3 Digital + SBD > R44 (24/96)
Otis Grove
by Otis Grove
43
0
0
Source: AKG c214 + SBD (mono) > R44 (24/48)